Una Noche Fuera de Control BluRay-Screeener | The Buddha | The Mind of a Chef S05E12 WEB x264-STRiFE[eztv] mkv
Loading...
Error

Скачать Камера 211 / Celda 211 (Даниэль Монсон) [2009, боевик, триллер, драма, BDRip-AVC] [Dub R5]+[AVO (Юрий Немахов)] торрент без регистрации

Статистика раздачи
Размер:  2,25 GB   |    Скачан:  15 раз
Сидов:  1  [  0 KB/s  ]  
 
 
 
Автор Сообщение

Marsianka

[] 

Камера 211 / Celda 211
«Сиди и смотри!»
Год выпуска: 2009
Страна: Испания, Франция
Производство: La Fabrique 2, La Fabrique de Films, Morena Films S.L., Telecinco Cinema, Vaca Films
Жанр: боевик, триллер, драма

Режиссёр: Даниэль Монсон
В ролях: Луис Тосар, Альберто Амман, Антонио Ресинес, Мануэль Морон, Карлос Бардем, Марта Этура, Луис Саера, Фернандо Сото, Висенте Ромеро, Маноло Соло, Пачи Бискерт, Хосеан Бенгоэчеа

Перевод: Дублированный | R5, Авторский (Юрий Немахов)
Субтитры: Русские, английские

Описание: Полицейский Хуан пришёл наниматься надзирателем в тюрьму. Знакомство с новым рабочим местом оказалось роковым. Он попал в переделку, и ему пришлось прикинуться заключенным, чтобы спасти свою жизнь... Фильм снят по мотивам романа Франсиско Переса Гандуля «Камера 211» (Celda 211, 2004).



Качество: BDRip-AVC
Продолжительность: 01:47:55

Формат: MKV
Видео кодек: MPEG-4 AVC
Аудио кодек: AC3
Видео: 1024x554 (2,40:1), 25.000 fps, x264 ~2156 kbps avg, 0.152 bit/pixel
Аудио #1: AC-3, 48.0 KHz, 6 (L,C,R,l,r) + LFE ch, 384 Kbps | Дублированный (R5)
Аудио #2: AC-3, 48.0 KHz, 6 (L,C,R,l,r) + LFE ch, 448 Kbps | AVO (Немахов)

Дата премьеры (мир): 4 сентября 2009
Дата премьеры (РФ): 4 марта 2010, «Люксор»

Релиз от: Rip by:

Общее
Уникальный идентификатор : 216392559604506759480096380623794098231 (0xA2CBB0E73E45740F8F83ECE0EE5A5037)
Полное имя : D:Celda.211.2009.BDRip(AVC).OlLanDGroup.mkv
Формат : Matroska
Версия формата : Version 2
Размер файла : 2,25 Гбайт
Продолжительность : 1 ч. 47 м.
Общий поток : 2981 Кбит/сек
Название фильма : Celda 211 #TorpedoUK#
Дата кодирования : UTC 2017-06-30 16:14:31
Программа кодирования : mkvmerge v7.8.0 ('River Man') 32bit built on Apr 3 2015 12:11:22
Библиотека кодирования : libebml v1.3.1 + libmatroska v1.4.2

Видео
Идентификатор : 1
Формат : AVC
Формат/Информация : Advanced Video Codec
Профиль формата : [email protected]
Параметр CABAC формата : Да
Параметр ReFrames формата : 10 кадров
Идентификатор кодека : V_MPEG4/ISO/AVC
Продолжительность : 1 ч. 47 м.
Битрейт : 2156 Кбит/сек
Ширина : 1024 пикселя
Высота : 554 пикселя
Соотношение сторон : 1,85:1
Режим частоты кадров : Постоянный
Частота кадров : 25,000 кадров/сек
Цветовое пространство : YUV
Субдискретизация насыщенности : 4:2:0
Битовая глубина : 8 бит
Тип развёртки : Прогрессивная
Бит/(Пиксели*Кадры) : 0.152
Размер потока : 1,58 Гбайт (70%)
Библиотека кодирования : x264 core 146 r2538 121396c
Настройки программы : cabac=1 / ref=10 / deblock=1:-3:-3 / analyse=0x3:0x133 / me=umh / subme=11 / psy=1 / psy_rd=1.00:0.07 / mixed_ref=1 / me_range=48 / chroma_me=1 / trellis=2 / 8x8dct=1 / cqm=0 / deadzone=21,11 / fast_pskip=0 / chroma_qp_offset=-3 / threads=6 / lookahead_threads=1 / sliced_threads=0 / nr=0 / decimate=0 / interlaced=0 / bluray_compat=0 / constrained_intra=0 / bframes=10 / b_pyramid=2 / b_adapt=2 / b_bias=0 / direct=3 / weightb=1 / open_gop=0 / weightp=2 / keyint=250 / keyint_min=25 / scenecut=40 / intra_refresh=0 / rc_lookahead=40 / rc=2pass / mbtree=0 / bitrate=2156 / ratetol=1.0 / qcomp=0.60 / qpmin=0 / qpmax=69 / qpstep=4 / cplxblur=20.0 / qblur=0.5 / vbv_maxrate=50000 / vbv_bufsize=62500 / nal_hrd=none / filler=0 / ip_ratio=1.40 / pb_ratio=1.30 / aq=1:1.00
Язык : English
Default : Да
Forced : Нет

Аудио #1
Идентификатор : 2
Формат : AC-3
Формат/Информация : Audio Coding 3
Расширение режима : CM (complete main)
Параметр Endianness формата : Big
Идентификатор кодека : A_AC3
Продолжительность : 1 ч. 47 м.
Вид битрейта : Постоянный
Битрейт : 384 Кбит/сек
Каналы : 6 каналов
Расположение каналов : Front: L C R, Side: L R, LFE
Частота : 48,0 КГц
Частота кадров : 31,250 кадров/сек (1536 spf)
Битовая глубина : 16 бит
Метод сжатия : С потерями
Размер потока : 296 Мбайт (13%)
Заголовок : DUB
Язык : Russian
Default : Да
Forced : Нет

Аудио #2
Идентификатор : 3
Формат : AC-3
Формат/Информация : Audio Coding 3
Расширение режима : CM (complete main)
Параметр Endianness формата : Big
Идентификатор кодека : A_AC3
Продолжительность : 1 ч. 47 м.
Вид битрейта : Постоянный
Битрейт : 448 Кбит/сек
Каналы : 6 каналов
Расположение каналов : Front: L C R, Side: L R, LFE
Частота : 48,0 КГц
Частота кадров : 31,250 кадров/сек (1536 spf)
Битовая глубина : 16 бит
Метод сжатия : С потерями
Размер потока : 346 Мбайт (15%)
Заголовок : AVO (Юрий Немахов)
Язык : Russian
Default : Нет
Forced : Нет

Текст #1
Идентификатор : 4
Формат : UTF-8
Идентификатор кодека : S_TEXT/UTF8
Идентификатор кодека/Информация : UTF-8 Plain Text
Заголовок : Full
Язык : Russian
Default : Нет
Forced : Нет

Текст #2
Идентификатор : 5
Формат : UTF-8
Идентификатор кодека : S_TEXT/UTF8
Идентификатор кодека/Информация : UTF-8 Plain Text
Заголовок : Full
Язык : English
Default : Нет
Forced : Нет

Меню
00:00:00.000 : :Chapter 01
00:07:51.000 : :Chapter 02
00:18:34.000 : :Chapter 03
00:28:01.000 : :Chapter 04
00:35:38.400 : :Chapter 05
00:45:24.400 : :Chapter 06
00:56:24.520 : :Chapter 07
01:04:47.800 : :Chapter 08
01:13:29.800 : :Chapter 09
01:21:16.000 : :Chapter 10
01:30:45.000 : :Chapter 11
01:42:33.000 : :Chapter 12
01:47:38.640 : :Chapter 13




Скачать Камера.211.Celda.211.(Даниэль.Монсон).[2009.боевик.триллер.драма.BDRip-AVC].[Dub.R5]+[AVO.(Юрий.Немахов)].torrent без регистрации
Золото ЗОЛОТАЯ РАЗДАЧА! СКАЧАННОЕ НЕ ЗАСЧИТЫВАЕТСЯ! Золото
Дата: Зарегистрирован   [ Тип: внутренний ] Как тут cкачать?
MAGNET ссылка
MAGNET ссылка


Скачать .torrent

12 KB

Статус: проверено DHT
Скачан: торрент - 15 раз, раздача полностью - 4 раз
Размер: 2,25 GB
Оценка:  - (Голосов: 0)
Поблагодарили: 0
Поделиться ссылкой на эту раздачу с друзьями:
В контактеFacebookОдноклассникиTwitterLivejournalМой МирLiveinternet
 

 
Показать сообщения:    


Вы не можете начинать темы
Вы не можете отвечать на сообщения
Вы не можете редактировать свои сообщения
Вы не можете удалять свои сообщения
Вы не можете голосовать в опросах
Вы не можете прикреплять файлы к сообщениям
Вы можете скачивать файлы