Misja Afganistan | The Jeff Dunham Show | Dirk Roofthooft,
Loading...
Error

Скачать Хранители / Watchmen (Зак Снайдер) [2009, фантастика, триллер, драма, HDTVRip-AVC] [Театральная версия] [Open Matte] [Dub]+[Sub Rus, Eng] торрент без регистрации

Статистика раздачи
Размер:  2,92 GB   |    Скачан:  25 раз
Сидов:  1  [  0 KB/s  ]  
 
 
 
Автор Сообщение

Marsianka

[] 

Информация о фильме
Название: Хранители
Оригинальное название: Watchmen
Год выхода: 2009
Жанр: фантастика, триллер, драма
Режиссер: Зак Снайдер
В ролях: Малин Акерман, Билли Крудап, Мэттью Гуд, Джеки Эрл Хейли, Джеффри Дин Морган, Патрик Уилсон, Карла Гуджино, Мэтт Фрюэр, Стивен МакХэтти, Лаура Меннелл, Роб ЛаБелль, Гэри Хьюстон, Джерард Батлер

О фильме:
Действие картины разворачивается в параллельной реальности, в Америке 1985 года. В этом мире супергерои стали частью повседневной жизни общества, а Часы Судного Дня, застыв в пяти минутах от полуночи, отсчитывают время до столкновения ведущих мировых держав. После убийства одного из своих прежних коллег Роршах - супергерой, никогда не снимающий маски, - полон решимости свершить суд Линча.
Он начинает расследование заговора, призванного уничтожить или дискредитировать всех супергероев прошлого и настоящего. Он собирает своих соратников - отставной легион борцов с преступностью, но лишь один из них обладает подлинной силой. Постепенно Роршах осознает пугающий масштаб заговора, связанного с общим прошлым героев и сулящего катастрофические последствия в будущем. Они хранят наш покой, но кто охранит нас от Хранителей?



Страна: США
Продолжительность: 02:42:06
Перевод: дубляж

Файл
Кодек: x264 (AVC)
Качество: HDTVRip
Видео: 1024x576 (16:9), 23.976 fps, 2125 kbps
Аудио: AC3, 48 kHz, 448 kbps, 5.1 (Dub)
Субтитры: русские (форсированные, полные), английские (SRT)

Семпл

HDTV Open matte vs BluRay Wide screen






General
Unique ID : 232921574970368110228947838747064647730 (0xAF3B1047A0450D64B195666C4CF3C032)
Complete name : WatchmenWatchmen.2009.TC.Open.Matte.HDTVRip.576p.mkv
Format : Matroska
Format version : Version 4 / Version 2
File size : 2.92 GiB
Duration : 2 h 42 min
Overall bit rate : 2 575 kb/s
Movie name : Watchmen (2009) TC Open Matte
Encoded date : UTC 2017-07-24 05:24:59
Writing application : mkvmerge v9.9.0 ('Pick Up') 64bit
Writing library : libebml v1.3.4 + libmatroska v1.4.5
Attachments : poster

Video
ID : 1
Format : AVC
Format/Info : Advanced Video Codec
Format profile : [email protected]
Format settings, CABAC : Yes
Format settings, RefFrames : 8 frames
Codec ID : V_MPEG4/ISO/AVC
Duration : 2 h 42 min
Bit rate : 2 125 kb/s
Width : 1 024 pixels
Height : 576 pixels
Display aspect ratio : 16:9
Frame rate mode : Constant
Frame rate : 23.976 (24000/1001) FPS
Color space : YUV
Chroma subsampling : 4:2:0
Bit depth : 8 bits
Scan type : Progressive
Bits/(Pixel*Frame) : 0.150
Stream size : 2.41 GiB (83%)
Writing library : x264 core 152 r2851 ba24899
Encoding settings : cabac=1 / ref=8 / deblock=1:-2:-2 / analyse=0x3:0x113 / me=umh / subme=10 / psy=1 / psy_rd=1.08:0.00 / mixed_ref=1 / me_range=32 / chroma_me=1 / trellis=2 / 8x8dct=1 / cqm=0 / deadzone=21,11 / fast_pskip=0 / chroma_qp_offset=-2 / threads=12 / lookahead_threads=2 / sliced_threads=0 / nr=0 / decimate=1 / interlaced=0 / bluray_compat=0 / constrained_intra=0 / bframes=7 / b_pyramid=2 / b_adapt=2 / b_bias=0 / direct=3 / weightb=1 / open_gop=0 / weightp=2 / keyint=240 / keyint_min=23 / scenecut=40 / intra_refresh=0 / rc_lookahead=64 / rc=2pass / mbtree=0 / bitrate=2125 / ratetol=1.0 / qcomp=0.60 / qpmin=0 / qpmax=69 / qpstep=4 / cplxblur=20.0 / qblur=0.5 / vbv_maxrate=50000 / vbv_bufsize=50000 / nal_hrd=none / filler=0 / ip_ratio=1.40 / pb_ratio=1.30 / aq=1:1.00 / zones=223614,233184,q=35
Language : English
Default : Yes
Forced : No

Audio
ID : 2
Format : AC-3
Format/Info : Audio Coding 3
Format settings, Endianness : Big
Codec ID : A_AC3
Duration : 2 h 42 min
Bit rate mode : Constant
Bit rate : 448 kb/s
Channel(s) : 6 channels
Channel positions : Front: L C R, Side: L R, LFE
Sampling rate : 48.0 kHz
Frame rate : 31.250 FPS (1536 SPF)
Bit depth : 16 bits
Compression mode : Lossy
Stream size : 519 MiB (17%)
Language : Russian
Service kind : Complete Main
Default : Yes
Forced : No

Text #1
ID : 3
Format : UTF-8
Codec ID : S_TEXT/UTF8
Codec ID/Info : UTF-8 Plain Text
Duration : 2 h 14 min
Bit rate : 0 b/s
Count of elements : 19
Stream size : 869 Bytes (0%)
Title : Forced Rus
Language : Russian
Default : Yes
Forced : No

Text #2
ID : 4
Format : UTF-8
Codec ID : S_TEXT/UTF8
Codec ID/Info : UTF-8 Plain Text
Duration : 2 h 35 min
Bit rate : 92 b/s
Count of elements : 1691
Stream size : 105 KiB (0%)
Title : Full Rus
Language : Russian
Default : No
Forced : No

Text #3
ID : 5
Format : UTF-8
Codec ID : S_TEXT/UTF8
Codec ID/Info : UTF-8 Plain Text
Duration : 2 h 34 min
Bit rate : 51 b/s
Count of elements : 1655
Stream size : 58.4 KiB (0%)
Title : Full Eng
Language : English
Default : No
Forced : No

Menu
00:00:00.000 : en:00:00:00.000
00:05:41.633 : en:00:05:41.633
00:11:16.134 : en:00:11:16.134
00:15:11.994 : en:00:15:11.994
00:17:36.013 : en:00:17:36.013
00:21:43.928 : en:00:21:43.928
00:24:33.847 : en:00:24:33.847
00:29:32.312 : en:00:29:32.312
00:33:59.204 : en:00:33:59.204
00:38:30.725 : en:00:38:30.725
00:41:58.599 : en:00:41:58.599
00:43:36.280 : en:00:43:36.280
00:46:59.358 : en:00:46:59.358
00:51:14.196 : en:00:51:14.196
00:53:22.533 : en:00:53:22.533
00:56:02.901 : en:00:56:02.901
00:59:17.220 : en:00:59:17.220
01:04:14.142 : en:01:04:14.142
01:06:04.085 : en:01:06:04.085
01:09:26.454 : en:01:09:26.454
01:11:05.052 : en:01:11:05.052
01:13:51.719 : en:01:13:51.719
01:15:31.402 : en:01:15:31.402
01:19:15.960 : en:01:19:15.960
01:23:47.856 : en:01:23:47.856
01:27:01.758 : en:01:27:01.758
01:32:05.145 : en:01:32:05.145
01:37:48.946 : en:01:37:48.946
01:41:09.814 : en:01:41:09.814
01:46:16.161 : en:01:46:16.161
01:49:19.428 : en:01:49:19.428
01:52:35.082 : en:01:52:35.082
01:56:57.761 : en:01:56:57.761
01:57:58.238 : en:01:57:58.238
02:02:40.228 : en:02:02:40.228
02:09:31.555 : en:02:09:31.555
02:12:14.260 : en:02:12:14.260
02:16:39.650 : en:02:16:39.650
02:20:02.477 : en:02:20:02.477
02:23:28.558 : en:02:23:28.558
02:26:38.873 : en:02:26:38.873
02:30:43.785 : en:02:30:43.785
02:35:22.563 : en:02:35:22.563




Скачать Хранители.Watchmen.(Зак.Снайдер).[2009.фантастика.триллер.драма.HDTVRip-AVC].[Театральная.версия].[Open.Matte].[Dub]+[Sub.Rus.Eng].torrent без регистрации
Золото ЗОЛОТАЯ РАЗДАЧА! СКАЧАННОЕ НЕ ЗАСЧИТЫВАЕТСЯ! Золото
Дата: Зарегистрирован   [ Тип: внутренний ] Как тут cкачать?
MAGNET ссылка
MAGNET ссылка


Скачать .torrent

15 KB

Статус: проверено DHT
Скачан: торрент - 25 раз, раздача полностью - 7 раз
Размер: 2,92 GB
Оценка:  - (Голосов: 0)
Поблагодарили: 0
Поделиться ссылкой на эту раздачу с друзьями:
В контактеFacebookОдноклассникиTwitterLivejournalМой МирLiveinternet
 

 
Показать сообщения:    


Вы не можете начинать темы
Вы не можете отвечать на сообщения
Вы не можете редактировать свои сообщения
Вы не можете удалять свои сообщения
Вы не можете голосовать в опросах
Вы не можете прикреплять файлы к сообщениям
Вы можете скачивать файлы