Loading...
Error

Скачать Ниндзя-убийца / Ninja Assassin (Джеймс МакТиг) [2009, боевик, триллер, криминал, HDRip] [Dub (Blu-Ray CEE)] торрент без регистрации

Статистика раздачи
Размер:  1,46 GB   |    Скачан:  16 раз
Сидов:  1  [  0 KB/s  ]  
 
 
 
Автор Сообщение

Marsianka

[] 

Информация о фильме
Название: Ниндзя-убийца
Оригинальное название: Ninja Assassin
Год выхода: 2009
Жанр: боевик, триллер, криминал
Режиссер: Джеймс МакТиг
В ролях: Рэйн, Ли Джун, Джонатан Чан-Пинсли, Иль-Ён Ким, Юки Ивамото, Бен Майлз, Наоми Харрис, Санг Кенг, Лин Дэн Пэм, Ю Фэнг

О фильме:
Рейзо — один из самых опасных убийц-ниндзя в мире. Еще ребенком его превратили в профессионального убийцу члены клана «Озуну» — секретной организации, чье существование до сих пор считалось выдумкой. Рейзо, преследуемый муками совести из-за беспощадного убийства своего друга кланом Озуну, сбегает от своих. Но тайные кланы не отпускают «своих» просто так…



Страна: США, Германия
Студия: Anarchos Productions Inc., Dark Castle Entertainment, Legendary Pictures, Warner Bros. Pictures Co.
Продолжительность: 01:38:31
Перевод: Профессиональный (дублированный) Blu-Ray CEE

Файл
Кодек: XviD
Качество: HDRip
Видео: 720x304 (2.35:1), 24 fps, XviD build 73 ~1726 kbps avg, 0.33 bit/pixel
Звук: 48 kHz, AC3 Dolby Digital, 3/2 (L,C,R,l,r) + LFE ch, ~384 kbps
Субтитры: Отсутствуют

Семпл
General
Complete name : D:ТоррентыРип от ШкиперНиндзя-убийцаNinja.Ubiytsa.2009.HDRip.by shkiper.avi
Format : AVI
Format/Info : Audio Video Interleave
File size : 1.46 GiB
Duration : 1 h 38 min
Overall bit rate : 2 120 kb/s
Writing application : VirtualDubMod 1.5.10.3 | www.virtualdub-fr.org || (build 2550/release)
Writing library : VirtualDubMod build 2550/release

Video
ID : 0
Format : MPEG-4 Visual
Format profile : Advanced [email protected]
Format settings, BVOP : 1
Format settings, QPel : No
Format settings, GMC : No warppoints
Format settings, Matrix : Custom
Codec ID : XVID
Codec ID/Hint : XviD
Duration : 1 h 38 min
Bit rate : 1 727 kb/s
Width : 720 pixels
Height : 304 pixels
Display aspect ratio : 2.35:1
Frame rate : 24.000 FPS
Color space : YUV
Chroma subsampling : 4:2:0
Bit depth : 8 bits
Scan type : Progressive
Compression mode : Lossy
Bits/(Pixel*Frame) : 0.329
Stream size : 1.19 GiB (81%)
Writing library : XviD 73

Audio
ID : 1
Format : AC-3
Format/Info : Audio Coding 3
Mode extension : CM (complete main)
Format settings, Endianness : Big
Codec ID : 2000
Duration : 1 h 38 min
Bit rate mode : Constant
Bit rate : 384 kb/s
Channel(s) : 6 channels
Channel positions : Front: L C R, Side: L R, LFE
Sampling rate : 48.0 kHz
Frame rate : 31.250 FPS (1536 spf)
Bit depth : 16 bits
Compression mode : Lossy
Stream size : 271 MiB (18%)
Alignment : Split accross interleaves
Interleave, duration : 42 ms (1.00 video frame)
Interleave, preload duratio : 500 ms
Релиз от:




Скачать Ниндзя-убийца.Ninja.Assassin.(Джеймс.МакТиг).[2009.боевик.триллер.криминал.HDRip].[Dub.(Blu-Ray.CEE)].torrent без регистрации
Золото ЗОЛОТАЯ РАЗДАЧА! СКАЧАННОЕ НЕ ЗАСЧИТЫВАЕТСЯ! Золото
Дата: Зарегистрирован   [ Тип: внутренний ] Как тут cкачать?
MAGNET ссылка
MAGNET ссылка


Скачать .torrent

15 KB

Статус: проверено DHT
Скачан: торрент - 16 раз, раздача полностью - 25 раз
Размер: 1,46 GB
Оценка:  - (Голосов: 0)
Поблагодарили: 1
Поделиться ссылкой на эту раздачу с друзьями:
В контактеFacebookОдноклассникиTwitterLivejournalМой МирLiveinternet
 

 
Показать сообщения:    


Вы не можете начинать темы
Вы не можете отвечать на сообщения
Вы не можете редактировать свои сообщения
Вы не можете удалять свои сообщения
Вы не можете голосовать в опросах
Вы не можете прикреплять файлы к сообщениям
Вы можете скачивать файлы