The Flash 2014 - Action, Adventure, Drama, Science Fiction | O Liberdade (2012) RATING 0.0 / 10 QUALITY | socusoft
Loading...
Error

Скачать Крик в общаге / Sorority Row (Стюарт Хендлер) [2009, ужасы, триллер, HDRip-AVC] [Dub]+[Sub Rus, Eng]x2 торрент без регистрации

Статистика раздачи
Размер:  746 MB   |    Скачан:  5 раз
Сидов:  9  [  0 KB/s  ]  
 
 
 
Автор Сообщение

Marsianka

[] 

Информация о фильме
Название: Крик в общаге
Оригинальное название: Sorority Row
Год выхода: 2009
Жанр: ужасы, триллер
Режиссер: Стюарт Хендлер
В ролях: Брайана Эвиган, Леа Пайпс, Румер Уиллис, Джэми Чунг, Марго Харшман, Джулиан Моррис, Одрина Пэтридж, Кэрри Фишер, Мэтт Лантер, Макс Хеннард

О фильме :
Группа студенток решает отомстить парню, изменяющему их подружке. Для этого они инсценируют смерть одной из любовниц студента-ловеласа. Юноша, который не знает, что все это лишь сомнительная шутка, убивает девушку уже по-настоящему. А уже на выпускном вдруг появляется таинственная фигура в балахоне. Этот кто-то знает про скрываемое студентами убийство и начинает мстить, уничтожая всех соучастников преступления.



Страна: США, Summit Entertainment
Продолжительность: 01:40:56
Перевод: Профессиональный (полное дублирование)

Файл
Формат: MKV
Качество: HDRip-AVC
Видео: MPEG-4 AVC, 768x320, ~ 955 Кбит/с
Аудио: AAC-LC, 2 ch, ~ 76 Кбит/с
Субтитры: Русские, английские
Общее
Уникальный идентификатор : 226996547895603560851343747479270087585 (0xAAC5F1E4145C09E5AEDEB7C75CC05BA1)
Полное имя : D:MOVIESSorority.Row.2009.ExKinoRay.mkv
Формат : Matroska
Версия формата : Version 4 / Version 2
Размер файла : 746 Мбайт
Продолжительность : 1 ч. 40 м.
Общий поток : 1033 Кбит/сек
Дата кодирования : UTC 2017-10-28 13:30:07
Программа кодирования : mkvmerge v15.0.0 ('Duel with the Devil') 64-bit
Библиотека кодирования : libebml v1.3.5 + libmatroska v1.4.5

Видео
Идентификатор : 1
Формат : AVC
Формат/Информация : Advanced Video Codec
Профиль формата : [email protected]
Параметр CABAC формата : Да
Параметр RefFrames формата : 10 кадров
Идентификатор кодека : V_MPEG4/ISO/AVC
Продолжительность : 1 ч. 40 м.
Битрейт : 955 Кбит/сек
Ширина : 768 пикселей
Высота : 320 пикселей
Соотношение сторон : 2,40:1
Режим частоты кадров : Постоянный
Частота кадров : 23,976 (24000/1001) кадра/сек
Цветовое пространство : YUV
Субдискретизация насыщенности : 4:2:0
Битовая глубина : 8 бит
Тип развёртки : Прогрессивная
Бит/(Пиксели*Кадры) : 0.162
Размер потока : 689 Мбайт (92%)
Библиотека кодирования : x264 core 152 r2851kMod ba24899
Настройки программы : cabac=1 / ref=10 / deblock=1:-2:-1 / analyse=0x3:0x133 / me=umh / subme=11 / psy=1 / fade_compensate=0.00 / psy_rd=1.00:0.10 / mixed_ref=1 / me_range=32 / chroma_me=1 / trellis=2 / 8x8dct=1 / cqm=0 / deadzone=21,11 / fast_pskip=0 / chroma_qp_offset=-3 / threads=6 / lookahead_threads=1 / sliced_threads=0 / nr=0 / decimate=0 / interlaced=0 / bluray_compat=0 / constrained_intra=0 / bframes=10 / b_pyramid=2 / b_adapt=2 / b_bias=0 / direct=3 / weightb=1 / open_gop=0 / weightp=2 / keyint=240 / keyint_min=23 / scenecut=40 / intra_refresh=0 / rc_lookahead=40 / rc=2pass / mbtree=1 / bitrate=955 / ratetol=1.0 / qcomp=0.60 / qpmin=0 / qpmax=69 / qpstep=4 / cplxblur=20.0 / qblur=0.5 / vbv_maxrate=50000 / vbv_bufsize=62500 / nal_hrd=none / filler=0 / ip_ratio=1.40 / aq=3:1.00
Default : Да
Forced : Нет

Аудио
Идентификатор : 2
Формат : AAC
Формат/Информация : Advanced Audio Codec
Профиль формата : LC
Идентификатор кодека : A_AAC
Продолжительность : 1 ч. 40 м.
Битрейт : 76,0 Кбит/сек
Каналы : 2 канала
Расположение каналов : Front: L R
Частота : 48,0 КГц
Частота кадров : 46,875 кадров/сек (1024 SPF)
Метод сжатия : С потерями
Задержка видео : 9 мс.
Размер потока : 54,9 Мбайт (7%)
Язык : Russian
Default : Да
Forced : Нет

Текст #1
Идентификатор : 3
Формат : UTF-8
Идентификатор кодека : S_TEXT/UTF8
Идентификатор кодека/Информация : UTF-8 Plain Text
Продолжительность : 1 ч. 35 м.
Битрейт : 102 бит/сек
ElementCount : 1290
Размер потока : 71,7 Кбайт (0%)
Язык : Russian
Default : Нет
Forced : Нет

Текст #2
Идентификатор : 4
Формат : UTF-8
Идентификатор кодека : S_TEXT/UTF8
Идентификатор кодека/Информация : UTF-8 Plain Text
Продолжительность : 1 ч. 35 м.
Битрейт : 63 бит/сек
ElementCount : 1238
Размер потока : 44,1 Кбайт (0%)
Язык : English
Default : Нет
Forced : Нет

Меню
00:00:00.000 : en:Chapter 01
00:08:00.563 : en:Chapter 02
00:20:56.088 : en:Chapter 03
00:26:20.579 : en:Chapter 04
00:33:38.516 : en:Chapter 05
00:39:03.257 : en:Chapter 06
00:46:06.221 : en:Chapter 07
00:50:07.796 : en:Chapter 08
00:53:08.310 : en:Chapter 09
00:56:29.803 : en:Chapter 10
01:02:05.096 : en:Chapter 11
01:08:50.042 : en:Chapter 12
01:14:21.999 : en:Chapter 13
01:18:14.689 : en:Chapter 14
01:30:02.730 : en:Chapter 15
01:36:13.350 : en:Chapter 16
Релиз от:




Скачать Крик.в.общаге.Sorority.Row.(Стюарт.Хендлер).[2009.ужасы.триллер.HDRip-AVC].[Dub]+[Sub.Rus.Eng]x2.torrent без регистрации
Золото ЗОЛОТАЯ РАЗДАЧА! СКАЧАННОЕ НЕ ЗАСЧИТЫВАЕТСЯ! Золото
Дата: Зарегистрирован   [ Тип: внешний ] Как тут cкачать?
MAGNET ссылка
MAGNET ссылка


Скачать .torrent

16 KB

Статус: проверено DHT
Скачан: торрент - 5 раз, раздача полностью - 0 раз
Размер: 746 MB
Оценка:  - (Голосов: 0)
Поблагодарили: 0
Поделиться ссылкой на эту раздачу с друзьями:
В контактеFacebookОдноклассникиTwitterLivejournalМой МирLiveinternet
 

 
Показать сообщения:    


Вы не можете начинать темы
Вы не можете отвечать на сообщения
Вы не можете редактировать свои сообщения
Вы не можете удалять свои сообщения
Вы не можете голосовать в опросах
Вы не можете прикреплять файлы к сообщениям
Вы можете скачивать файлы