Скачать MP3 | EldarChampion | Wellber No Monogatari: ...
Loading...
Error

Скачать Белая мгла / Whiteout (Доминик Сена) [2009, боевик, триллер, криминал, детектив, HDRip-AVC] [Dub]+[Sub Rus, Eng]x2 торрент без регистрации

Статистика раздачи
Размер:  746 MB   |    Скачан:  5 раз
Сидов:  1  [  0 KB/s  ]  
 
 
 
Автор Сообщение

Marsianka

[] 

Информация о фильме
Название: Белая мгла
Оригинальное название: Whiteout
Год выхода: 2009
Жанр: боевик, триллер, криминал, детектив
Режиссер: Доминик Сена / Dominic Sena
В ролях: Кейт Бекинсейл, Гэбриел Махт, Том Скеррит, Коламбус Шорт ,Алекс О`Лахлан, Шоун Дойл, Джоэль С. Келлер, Джесси Тодд, Артур Холден

О фильме :
Персонал американской полярной станции, затерявшейся на просторах Антарктики, готовится к отдыху на океанском побережье, завершив долгую вахту. Не является исключением и Кэрри Стетко, федеральный маршал, отвечающий за безопасность полярников. Проверка базы «Амундсен-Скотт», на которой стажируются новички – ее последнее задание. Планы нарушает найденный труп, в буквальном смысле свалившийся с неба. Тело принадлежит российскому полярнику. Вместе с пилотом Кэрри отправляется на станцию «Восток», где обнаруживает еще одного мертвеца, убитого ледорубом. Там на Кэрри нападает неизвестный. Похоже, ей предстоит поймать серийного убийцу за два дня, оставшихся до приближения страшного урагана – Белой мглы.



Страна: США, Канада, Франция
Студия: Dark Castle Entertainment, Warner Bros. Pictures
Продолжительность: 01:40:43
Перевод: Профессиональный (полное дублирование)

Файл
Формат: MKV
Качество: HDRip-AVC
Видео: MPEG-4 AVC, 768x320, ~ 958 Кбит/с
Аудио: AAC-LC, 2 ch, ~ 76 Кбит/с
Субтитры: Русские, английские
Общее
Уникальный идентификатор : 222682573703135770330742923933242154897 (0xA7871A8AB1C4942BA09ECC853330DF91)
Полное имя : D:MOVIESWhiteout.2009.ExKinoRay.mkv
Формат : Matroska
Версия формата : Version 4 / Version 2
Размер файла : 746 Мбайт
Продолжительность : 1 ч. 40 м.
Общий поток : 1036 Кбит/сек
Дата кодирования : UTC 2017-11-01 12:17:36
Программа кодирования : mkvmerge v15.0.0 ('Duel with the Devil') 64-bit
Библиотека кодирования : libebml v1.3.5 + libmatroska v1.4.5

Видео
Идентификатор : 1
Формат : AVC
Формат/Информация : Advanced Video Codec
Профиль формата : [email protected]
Параметр CABAC формата : Да
Параметр RefFrames формата : 10 кадров
Идентификатор кодека : V_MPEG4/ISO/AVC
Продолжительность : 1 ч. 40 м.
Битрейт : 958 Кбит/сек
Ширина : 768 пикселей
Высота : 320 пикселей
Соотношение сторон : 2,40:1
Режим частоты кадров : Постоянный
Частота кадров : 23,976 (24000/1001) кадра/сек
Цветовое пространство : YUV
Субдискретизация насыщенности : 4:2:0
Битовая глубина : 8 бит
Тип развёртки : Прогрессивная
Бит/(Пиксели*Кадры) : 0.163
Размер потока : 690 Мбайт (92%)
Библиотека кодирования : x264 core 152 r2851kMod ba24899
Настройки программы : cabac=1 / ref=10 / deblock=1:-3:-2 / analyse=0x3:0x133 / me=umh / subme=11 / psy=1 / fade_compensate=0.00 / psy_rd=1.00:0.10 / mixed_ref=1 / me_range=32 / chroma_me=1 / trellis=2 / 8x8dct=1 / cqm=0 / deadzone=21,11 / fast_pskip=0 / chroma_qp_offset=-3 / threads=6 / lookahead_threads=1 / sliced_threads=0 / nr=0 / decimate=0 / interlaced=0 / bluray_compat=0 / constrained_intra=0 / bframes=10 / b_pyramid=2 / b_adapt=2 / b_bias=0 / direct=3 / weightb=1 / open_gop=0 / weightp=2 / keyint=240 / keyint_min=23 / scenecut=40 / intra_refresh=0 / rc_lookahead=40 / rc=2pass / mbtree=1 / bitrate=958 / ratetol=1.0 / qcomp=0.60 / qpmin=0 / qpmax=69 / qpstep=4 / cplxblur=20.0 / qblur=0.5 / vbv_maxrate=50000 / vbv_bufsize=62500 / nal_hrd=none / filler=0 / ip_ratio=1.40 / aq=3:1.00
Default : Да
Forced : Нет

Аудио
Идентификатор : 2
Формат : AAC
Формат/Информация : Advanced Audio Codec
Профиль формата : LC
Идентификатор кодека : A_AAC
Продолжительность : 1 ч. 40 м.
Битрейт : 76,0 Кбит/сек
Каналы : 2 канала
Расположение каналов : Front: L R
Частота : 48,0 КГц
Частота кадров : 46,875 кадров/сек (1024 SPF)
Метод сжатия : С потерями
Задержка видео : 9 мс.
Размер потока : 54,7 Мбайт (7%)
Default : Да
Forced : Нет

Текст #1
Идентификатор : 3
Формат : UTF-8
Идентификатор кодека : S_TEXT/UTF8
Идентификатор кодека/Информация : UTF-8 Plain Text
Продолжительность : 1 ч. 39 м.
Битрейт : 62 бит/сек
ElementCount : 858
Размер потока : 45,7 Кбайт (0%)
Язык : Russian
Default : Нет
Forced : Нет

Текст #2
Идентификатор : 4
Формат : UTF-8
Идентификатор кодека : S_TEXT/UTF8
Идентификатор кодека/Информация : UTF-8 Plain Text
Продолжительность : 1 ч. 27 м.
Битрейт : 47 бит/сек
ElementCount : 839
Размер потока : 30,4 Кбайт (0%)
Язык : English
Default : Нет
Forced : Нет

Текст #3
Идентификатор : 5
Формат : UTF-8
Идентификатор кодека : S_TEXT/UTF8
Идентификатор кодека/Информация : UTF-8 Plain Text
Продолжительность : 1 ч. 32 м.
Битрейт : 1 бит/сек
ElementCount : 23
Размер потока : 1,20 Кбайт (0%)
Заголовок : Tol'ko nadpisi
Язык : Russian
Default : Да
Forced : Нет

Меню
00:00:00.000 : en:Deadly Destination
00:05:15.315 : en:Marshal Stetko
00:10:17.033 : en:The Whiteout
00:14:37.835 : en:A Sticker
00:17:50.736 : en:Not an Accident
00:22:16.043 : en:Come to Vostock
00:27:17.761 : en:Killer Rampage
00:32:12.097 : en:Really Good Start
00:37:05.098 : en:Section 104
00:41:07.131 : en:Craft and Cargo
00:46:34.875 : en:Fire in the Hole
00:51:55.112 : en:Covering Tracks
00:54:17.337 : en:Job Complication
00:57:32.949 : en:In a Nightmare
01:02:31.581 : en:Moving Target
01:06:17.098 : en:Bloody Fugitive
01:11:15.313 : en:White Fury
01:16:13.068 : en:Man in the Middle
01:18:05.890 : en:Silent Partner
01:21:52.908 : en:Telltale Signature
01:28:48.156 : en:One Last Time
01:31:49.504 : en:A Bit Warmer
01:34:07.267 : en:End Credits
Релиз от:




Скачать Белая.мгла.Whiteout.(Доминик.Сена).[2009.боевик.триллер.криминал.детектив.HDRip-AVC].[Dub]+[Sub.Rus.Eng]x2.torrent без регистрации
Золото ЗОЛОТАЯ РАЗДАЧА! СКАЧАННОЕ НЕ ЗАСЧИТЫВАЕТСЯ! Золото
Дата: Зарегистрирован   [ Тип: внутренний ] Как тут cкачать?
MAGNET ссылка
MAGNET ссылка


Скачать .torrent

16 KB

Статус: проверено DHT
Скачан: торрент - 5 раз, раздача полностью - 3 раз
Размер: 746 MB
Оценка:  5 (Голосов: 1)
Поблагодарили: 1
Поделиться ссылкой на эту раздачу с друзьями:
В контактеFacebookОдноклассникиTwitterLivejournalМой МирLiveinternet
 

 
Показать сообщения:    


Вы не можете начинать темы
Вы не можете отвечать на сообщения
Вы не можете редактировать свои сообщения
Вы не можете удалять свои сообщения
Вы не можете голосовать в опросах
Вы не можете прикреплять файлы к сообщениям
Вы можете скачивать файлы