http://vidlox.tv/w7vlaxwzj5ic | 0 Comments | http://vidzi.tv/61vp1dae231g.html
Loading...
Error

Скачать Пригород / Suburgatory (сезоны 01-03) (Эмили Капнек и др.) [2011-2014, комедия, WEB-DL] [720p] 3x[MVO (ТНТ, AlexFilm, Кубик в Кубе)] торрент без регистрации

Статистика раздачи
Размер:  41,53 GB   |    Скачан:  5 раз
Сидов:  2  [  0 KB/s  ]   Личеров:  2  [  0 KB/s  ]  
 
 
 
Автор Сообщение

МихаНЕзатор

[] 

Название: Пригород
Оригинальное название: Suburgatory
Год выхода: 2011 - 2014
Жанр: комедия
Режиссер: Эмили Капнек, Дрю Хэнкок, Корина Маршалл, ...

В ролях: Джереми Систо, Джейн Леви, Карли Чаикин, Рекс Ли, Элли Грант, Алан Тьюдик, Шерил Хайнс, Ана Гастейер, Маэстро Харрелл, Кара Пачитто, Кэтлин Пачитто, Эбби Кобб, Крис Парнелл, Паркер Янг, Эдвард Падилла, Ивэн Арнольд, Сэм Лернер, Джиллиан Вигмэн, Джей Мор, Арден Майрин, Алекс Болинг, Дина Дилл, Тодд Шерри, Банни Ривера, Алисия Сильверстоун, Джэми Денбо, Томас МакДонелл, Дэна Пауэлл, Глория Вотсис, Дарлен Хант, Кортни Мерритт, Мириам Флинн, Брук Бомер, Джошуа Эренберг, Илиана Фишер, Джастин Прентис, Том Йи, ...

О сериале: Одинокий отец Джордж желает своей 16-летней дочери Тессе только добра. Поэтому когда он находит в ее прикроватном столике пачку презервативов, он решает переехать из Нью-Йорка в пригород. Но Тесса видит в этом только кошмарность чересчур ухоженных газонов и чересчур силиконовых мамаш. Пригород может оказаться адом, но для Тессы и Джорджа это может быть шанс сблизиться…



Страна: США
Студия: Piece of Pie Productions, Warner Bros. Television
Продолжительность: 57 x ~ 21:00
Перевод:
- Профессиональный (многоголосый, закадровый) ТНТ
- Профессиональный (многоголосый, закадровый) AlexFilm
- Профессиональный (двуголосый, закадровый) Кубик в Кубе

Кодек: MPEG4/ISO/AVC
Качество: WEB-DL 720p
Видео: 1280x720, ~4000 kbps, 23,976 fps
Аудио #1: AC-3, 2 ch, 192 kbps (Rus) - ТНТ - спасибо miha2154
Аудио #2: AC-3, 6 ch, 384 kbps (Rus) - AlexFilm
Аудио #3: AC-3, 6 ch, 384 kbps (Rus) - Кубик в Кубе (только 1-й сезон)

АНОНСЫ ПОПУЛЯРНЫХ РАЗДАЧ
Общее
Уникальный идентификатор : 227210229986607677559464412022750124586 (0xAAEF193B3E4C6F8B9C22C8CBFCED1A2A)
Полное имя : Suburgatory E01 S01 2011 WEB-DL 720p ТНТ AlexFilm Кубик в Кубе.mkv
Формат : Matroska
Версия формата : Version 2
Размер файла : 760 Мбайт
Продолжительность : 21 м.
Общий поток : 4920 Кбит/сек
Дата кодирования : UTC 2017-11-05 09:32:24
Программа кодирования : mkvmerge v4.0.0 ('The Stars were mine') сборка от Jun 6 2010 16:18:42
Библиотека кодирования : libebml v1.0.0 + libmatroska v1.0.0

Видео
Идентификатор : 1
Формат : AVC
Формат/Информация : Advanced Video Codec
Профиль формата : [email protected]
Параметр CABAC формата : Нет
Параметр ReFrames формата : 2 кадра
Идентификатор кодека : V_MPEG4/ISO/AVC
Продолжительность : 21 м.
Битрейт : 3862 Кбит/сек
Ширина : 1280 пикселей
Высота : 720 пикселей
Соотношение сторон : 16:9
Режим частоты кадров : Постоянный
Частота кадров : 23,976 кадра/сек
Цветовое пространство : YUV
Субдискретизация насыщенности : 4:2:0
Битовая глубина : 8 бит
Тип развёртки : Прогрессивная
Бит/(Пиксели*Кадры) : 0.175
Размер потока : 597 Мбайт (78%)
Язык : English
Default : Нет
Forced : Нет
Цветовой диапазон : Limited
Основные цвета : BT.709
Характеристики трансфера : BT.709
Коэффициенты матрицы : BT.709

Аудио #1
Идентификатор : 2
Формат : AC-3
Формат/Информация : Audio Coding 3
Расширение режима : CM (complete main)
Параметр Endianness формата : Big
Идентификатор кодека : A_AC3
Продолжительность : 21 м.
Вид битрейта : Постоянный
Битрейт : 192 Кбит/сек
Каналы : 2 канала
Расположение каналов : Front: L R
Частота : 48,0 КГц
Частота кадров : 31,250 кадров/сек (1536 spf)
Метод сжатия : С потерями
Задержка видео : 1 с. 172 мс.
Размер потока : 29,7 Мбайт (4%)
Заголовок : ТНТ
Язык : Russian
Default : Нет
Forced : Нет

Аудио #2
Идентификатор : 3
Формат : AC-3
Формат/Информация : Audio Coding 3
Расширение режима : CM (complete main)
Параметр Endianness формата : Big
Идентификатор кодека : A_AC3
Продолжительность : 21 м.
Вид битрейта : Постоянный
Битрейт : 384 Кбит/сек
Каналы : 6 каналов
Расположение каналов : Front: L C R, Side: L R, LFE
Частота : 48,0 КГц
Частота кадров : 31,250 кадров/сек (1536 spf)
Метод сжатия : С потерями
Размер потока : 59,3 Мбайт (8%)
Заголовок : AlexFilm
Язык : Russian
Default : Нет
Forced : Нет

Аудио #3
Идентификатор : 4
Формат : AC-3
Формат/Информация : Audio Coding 3
Расширение режима : CM (complete main)
Параметр Endianness формата : Big
Идентификатор кодека : A_AC3
Продолжительность : 21 м.
Вид битрейта : Постоянный
Битрейт : 384 Кбит/сек
Каналы : 6 каналов
Расположение каналов : Front: L C R, Side: L R, LFE
Частота : 48,0 КГц
Частота кадров : 31,250 кадров/сек (1536 spf)
Метод сжатия : С потерями
Размер потока : 59,3 Мбайт (8%)
Заголовок : Кубик в Кубе
Язык : Russian
Default : Нет
Forced : Нет




Скачать Пригород.Suburgatory.(сезоны.01-03).(Эмили.Капнек.и.др.).[2011-2014.комедия.WEB-DL].[720p].3x[MVO.(ТНТ.AlexFilm.Кубик.в.Кубе)].torrent без регистрации
Золото ЗОЛОТАЯ РАЗДАЧА! СКАЧАННОЕ НЕ ЗАСЧИТЫВАЕТСЯ! Золото
Дата: Зарегистрирован   [ Тип: внешний ] Как тут cкачать?
MAGNET ссылка
MAGNET ссылка


Скачать .torrent

219 KB

Статус: проверено DHT
Скачан: торрент - 5 раз, раздача полностью - 0 раз
Размер: 41,53 GB
Оценка:  - (Голосов: 0)
Поблагодарили: 0
Поделиться ссылкой на эту раздачу с друзьями:
В контактеFacebookОдноклассникиTwitterLivejournalМой МирLiveinternet
 

 
Показать сообщения:    


Вы не можете начинать темы
Вы не можете отвечать на сообщения
Вы не можете редактировать свои сообщения
Вы не можете удалять свои сообщения
Вы не можете голосовать в опросах
Вы не можете прикреплять файлы к сообщениям
Вы можете скачивать файлы