Watch Episode | The.Big.Bang.Theory.S11E03.HDTV.x264-LOL | Desierto
Loading...
Error

Скачать Законопослушный гражданин / Law Abiding Citizen (Ф. Гэри Грей) [2009, триллер, драма, криминал, WEB-DLRip-AVC] [Theatrical Cut] [Open Matte] [Dub (R5)]+[Sub Rus, Eng]x2 торрент без регистрации

Статистика раздачи
Размер:  2,18 GB   |    Скачан:  4 раза
Сидов:  15  [  0 KB/s  ]  
 
 
 
Автор Сообщение

Marsianka

[] 



Информация о фильме
Название: Законопослушный гражданин
Оригинальное название: Law Abiding Citizen
Год выхода: 2009
Жанр: триллер, драма, криминал
Режиссер: Ф. Гэри Грей
В ролях: Джейми Фокс, Джерард Батлер, Колм Мини, Брюс МакГилл, Лесли Бибб, Майкл Ирби, Грегори Итцин, Реджина Холл, Эмиральд Янг, Кристиан Столте

О фильме:
Окружной прокурор пошёл на сделку с преступниками и освободил их из тюрьмы. Тогда человек, чья жена и ребёнок погибли от рук убийц решает отомстить прокурору, совершив правосудие самостоятельно. Его ловят и сажают в тюрьму, но он неожиданно ставит ультиматум: он будет убивать, не выходя из-за решетки, если его требования не будут выполнены. Смешное заявление, но вскоре люди правда начинают гибнуть…



Страна: США
Студия: Evil Twins (I), Film Department, The, Warp Film
Продолжительность: 01:48:56
Перевод: Профессиональный (дублированный) R5

Файл
Качество: WEB-DLRip-AVC | Open Matte
Формат: Matroska
Видео: 1024x576 at 23.976 fps, [email protected], ~2416 kbps
Аудио: 48 kHz, AC3, 3/2 (L,C,R,l,r) + LFE ch, ~448 kbps
Субтитры: Russian, English

x264 info: frame I:1347 Avg QP:13.37 size: 84427
x264 info: frame P:36256 Avg QP:15.78 size: 23077
x264 info: frame B:119095 Avg QP:17.37 size: 8572
x264 info: consecutive B-frames: 2.0% 3.0% 12.9% 28.1% 13.7% 32.1% 5.3% 1.7% 0.6% 0.6%

General
Unique ID : 106642063733257892305810722668343608866 (0x503A83AEE66B47D96A4B0EC37E9E4622)
Complete name : F:FILMSЗаконопослушный гражданин.(2009).WEB_DLRIP-AVC.[-=DoMiNo=-].mkv
Format : Matroska
Format version : Version 4 / Version 2
File size : 2.18 GiB
Duration : 1 h 48 min
Overall bit rate : 2 864 kb/s
Movie name : Законопослушный гражданин
Deion : Окружной прокурор пошёл на сделку с преступниками и освободил их из тюрьмы. Тогда человек, чья жена и ребёнок погибли от рук убийц решает отомстить прокурору, совершив правосудие самостоятельно. Его ловят и сажают в тюрьму, но он неожиданно ставит ультиматум: он будет убивать, не выходя из-за решетки, если его требования не будут выполнены. Смешное заявление, но вскоре люди правда начинают гибнуть…
Writing application : XviD4PSP 7.0.422 DAILY
Writing library : Lavf57.71.100
ErrorDetectionType : Per level 1
Attachments : poster.jpg
COMPOSER : Брайан Тайлер
COUNTRY : США
DATE : 2009
DIRECTOR : Ф. Гэри Грей
ENCODING_INFO : MATROSKA,WEBM > MKV Произвольный / H264 > X264 VBR-2P 2416kbps Произвольный / AC3 > COPY Безопасное
GENRE : триллер, драма, криминал
HD_VIDEO : 1
IMDB_RATING : 7.40
ITUNEXTC : mpaa|R|400|
Language : und
MEDIA_TYPE : 9
ORIGINAL_TITLE : Law Abiding Citizen
PRODUCER : Джерард Батлер, Лукас Фостер, Марк Гилл, Роберт Кац, Алан Сигел, Курт Уиммер, Дэйв Гэйр, Майкл Гогуэн, Нил Сакер, Грег Веесер, Ян Уотермейер, Джефф Дж. Ваксман
RATING : 8.013
WRITER : Курт Уиммер

Video
ID : 1
Format : AVC
Format/Info : Advanced Video Codec
Format profile : [email protected]
Format settings : CABAC / 10 Ref Frames
Format settings, CABAC : Yes
Format settings, ReFrames : 10 frames
Codec ID : V_MPEG4/ISO/AVC
Duration : 1 h 48 min
Bit rate : 2 416 kb/s
Width : 1 024 pixels
Height : 576 pixels
Display aspect ratio : 16:9
Frame rate mode : Constant
Frame rate : 23.976 (24000/1001) FPS
Color space : YUV
Chroma subsampling : 4:2:0
Bit depth : 8 bits
Scan type : Progressive
Bits/(Pixel*Frame) : 0.171
Stream size : 1.80 GiB (82%)
Title : RIP_BY_-=DoMiNo=-
Writing library : x264 core 152 r2851M ba24899
Encoding settings : cabac=1 / ref=10 / deblock=1:-3:-3 / analyse=0x3:0x133 / me=umh / subme=10 / psy=1 / psy_rd=1.00:0.05 / mixed_ref=1 / me_range=32 / chroma_me=1 / trellis=2 / 8x8dct=1 / cqm=0 / deadzone=21,11 / fast_pskip=1 / chroma_qp_offset=-3 / threads=5 / lookahead_threads=1 / sliced_threads=0 / nr=0 / decimate=1 / interlaced=0 / bluray_compat=0 / constrained_intra=0 / bframes=9 / b_pyramid=2 / b_adapt=2 / b_bias=0 / direct=3 / weightb=1 / open_gop=0 / weightp=2 / keyint=240 / keyint_min=24 / scenecut=40 / intra_refresh=0 / rc_lookahead=60 / rc=2pass / mbtree=1 / bitrate=2416 / ratetol=1.0 / qcomp=0.70 / qpmin=0 / qpmax=69 / qpstep=4 / cplxblur=20.0 / qblur=0.5 / ip_ratio=1.40 / aq=1:1.00
Language : English
Default : Yes
Forced : No
Color range : Limited
Color primaries : BT.709
Transfer characteristics : BT.709
Matrix coefficients : BT.709

Audio
ID : 2
Format : AC-3
Format/Info : Audio Coding 3
Codec ID : A_AC3
Duration : 1 h 48 min
Bit rate mode : Constant
Bit rate : 448 kb/s
Channel(s) : 6 channels
Channel positions : Front: L C R, Side: L R, LFE
Sampling rate : 48.0 kHz
Frame rate : 31.250 FPS (1536 SPF)
Bit depth : 16 bits
Compression mode : Lossy
Stream size : 349 MiB (16%)
Title : AC3 5.1 448Kbps (Дубляж - R5)
Language : Russian
Service kind : Complete Main
Default : Yes
Forced : No

Text #1
ID : 3
Format : UTF-8
Codec ID : S_TEXT/UTF8
Codec ID/Info : UTF-8 Plain Text
Duration : 1 h 38 min
Language : Russian
Default : Yes
Forced : No

Text #2
ID : 4
Format : UTF-8
Codec ID : S_TEXT/UTF8
Codec ID/Info : UTF-8 Plain Text
Duration : 1 h 38 min
Language : English
Default : No
Forced : No

Text #3
ID : 5
Format : UTF-8
Codec ID : S_TEXT/UTF8
Codec ID/Info : UTF-8 Plain Text
Duration : 1 h 46 min
Title : SDH, Amazon
Language : English
Default : No
Forced : No






Скачать Законопослушный.гражданин.Law.Abiding.Citizen.(Ф.Гэри.Грей).[2009.триллер.драма.криминал.WEB-DLRip-AVC].[Theatrical.Cut].[Open.Matte].[Dub.(R5)]+[Sub.Rus.Eng]x2.torrent без регистрации
Золото ЗОЛОТАЯ РАЗДАЧА! СКАЧАННОЕ НЕ ЗАСЧИТЫВАЕТСЯ! Золото
Дата: Зарегистрирован   [ Тип: внешний ] Как тут cкачать?
MAGNET ссылка
MAGNET ссылка


Скачать .torrent

12 KB

Статус: проверено DHT
Скачан: торрент - 4 раз, раздача полностью - 2 раз
Размер: 2,18 GB
Оценка:  5 (Голосов: 1)
Поблагодарили: 1
Поделиться ссылкой на эту раздачу с друзьями:
В контактеFacebookОдноклассникиTwitterLivejournalМой МирLiveinternet
 

 
Показать сообщения:    


Вы не можете начинать темы
Вы не можете отвечать на сообщения
Вы не можете редактировать свои сообщения
Вы не можете удалять свои сообщения
Вы не можете голосовать в опросах
Вы не можете прикреплять файлы к сообщениям
Вы можете скачивать файлы