Loading...
Error

Скачать Дорога без возврата / Road of No Return (Парвиз Сагхизадех) [2009, боевик, драма, BDRip-AVC] [MVO] торрент без регистрации

Статистика раздачи
Размер:  1,46 GB   |    Скачан:  2 раза
Сидов:  31  [  0 KB/s  ]   Личеров:  4  [  0 KB/s  ]  
 
 
 
Автор Сообщение

Marsianka

[] 

Информация о фильме
Название: Дорога без возврата
Оригинальное название: Road of No Return
Год выхода: 2009
Жанр: боевик, драма
Режиссер: Парвиз Сагхизадех
В ролях: Майкл Мэдсен, Дэвид Кэрредин, Майкл Блэйн-Розгей, Эрнест Энтони, Шэйн Вудсон, Карли Вестерман, Сэнди Кэнан, Мишель Капра, Монти Джордан, Хосе Эндрюс

О фильме: «Безвозвратный путь» покажет нам последние девять дней жизни нетипичных сильных мужчин, которые тайно организовывают группу, направленную на обезвреживание наркотического клана, создавшего эпидемию наркотиков в стране...


Страна: США
Студия: First Pictures, Frames In Motion, Zero Compression
Продолжительность: 01:30:26
Перевод: Профессиональный (многоголосый, закадровый)

Файл
Качество: BDRip-AVC
Видео кодек: AVC
Формат: MKV
Аудио кодек: AC3
Видео: AVC, 1160x652 (16:9), 23.976 fps, 1 933 Kbps (0.107 bit/pixel)
Звук: AC-3, 48.0 KHz, 6 ch, 384 Kbps
General
Unique ID : 178954373675738673290278133802723019042(0x86A15BD360ACED2F840A563F4B3D8922)
Complete name : C:UsersArūnasDesktopRoad of No Return.2009.BDRip.AVC.AC3.RU-GHOST.mkv
Format : Matroska
Format version : Version 4 / Version 2
File size : 1.46 GiB
Duration : 1 h 30 min
Overall bit rate : 2 318 kb/s
Movie name : GHOST
Encoded date : UTC 2017-11-13 21:18:42
Writing application : mkvmerge v9.2.0 ('Photograph') 64bit
Writing library : libebml v1.3.3 + libmatroska v1.4.4

Video
ID : 1
Format : AVC
Format/Info : Advanced Video Codec
Format profile : [email protected]
Format settings, CABAC : Yes
Format settings, ReFrames : 10 frames
Codec ID : V_MPEG4/ISO/AVC
Duration : 1 h 30 min
Bit rate : 1 933 kb/s
Width : 1 160 pixels
Height : 652 pixels
Display aspect ratio : 16:9
Frame rate mode : Constant
Frame rate : 23.976 (24000/1001) FPS
Color space : YUV
Chroma subsampling : 4:2:0
Bit depth : 8 bits
Scan type : Progressive
Bits/(Pixel*Frame) : 0.107
Stream size : 1.22 GiB (83%)
Writing library : x264 core 152 r2851M ba24899
Encoding settings : cabac=1 / ref=10 / deblock=1:-3:-3 / analyse=0x3:0x133 / me=umh / subme=11 / psy=1 / psy_rd=1.00:0.20 / mixed_ref=1 / me_range=32 / chroma_me=1 / trellis=2 / 8x8dct=1 / cqm=0 / deadzone=21,11 / fast_pskip=1 / chroma_qp_offset=-3 / threads=12 / lookahead_threads=3 / sliced_threads=0 / nr=0 / decimate=1 / interlaced=0 / bluray_compat=0 / constrained_intra=0 / bframes=11 / b_pyramid=2 / b_adapt=2 / b_bias=0 / direct=3 / weightb=1 / open_gop=0 / weightp=2 / keyint=240 / keyint_min=24 / scenecut=40 / intra_refresh=0 / rc_lookahead=40 / rc=2pass / mbtree=1 / bitrate=1933 / ratetol=1.0 / qcomp=0.60 / qpmin=10 / qpmax=69 / qpstep=4 / cplxblur=20.0 / qblur=0.5 / ip_ratio=1.40 / aq=1:1.00
Default : Yes
Forced : No

Audio
ID : 2
Format : AC-3
Format/Info : Audio Coding 3
Format settings, Endianness : Big
Codec ID : A_AC3
Duration : 1 h 30 min
Bit rate mode : Constant
Bit rate : 384 kb/s
Channel(s) : 6 channels
Channel positions : Front: L C R, Side: L R, LFE
Sampling rate : 48.0 kHz
Frame rate : 31.250 FPS (1536 spf)
Bit depth : 16 bits
Compression mode : Lossy
Stream size : 248 MiB (17%)
Language : Russian
Service kind : Complete Main
Default : Yes
Forced : No




Скачать Дорога.без.возврата.Road.of.No.Return.(Парвиз.Сагхизадех).[2009.боевик.драма.BDRip-AVC].[MVO].torrent без регистрации
Золото ЗОЛОТАЯ РАЗДАЧА! СКАЧАННОЕ НЕ ЗАСЧИТЫВАЕТСЯ! Золото
Дата: Зарегистрирован   [ Тип: внешний ] Как тут cкачать?
MAGNET ссылка
MAGNET ссылка


Скачать .torrent

16 KB

Статус: проверено DHT
Скачан: торрент - 2 раз, раздача полностью - 3 раз
Размер: 1,46 GB
Оценка:  - (Голосов: 0)
Поблагодарили: 0
Поделиться ссылкой на эту раздачу с друзьями:
В контактеFacebookОдноклассникиTwitterLivejournalМой МирLiveinternet
 

 
Показать сообщения:    


Вы не можете начинать темы
Вы не можете отвечать на сообщения
Вы не можете редактировать свои сообщения
Вы не можете удалять свои сообщения
Вы не можете голосовать в опросах
Вы не можете прикреплять файлы к сообщениям
Вы можете скачивать файлы