telecharger gratuit film BRAQUEURS 2012 | Virginia Kennedy | The Dark Tower
Loading...
Error

Скачать Шопо-коп / Paul Blart: Mall Cop (Стив Карр) [2009, боевик, комедия, BDRip-AVC] [Dub]+[Sub Rus, Eng]x2 торрент без регистрации

Статистика раздачи
Размер:  1,91 GB   |    Скачан:  9 раз
Сидов:  1  [  0 KB/s  ]  
 
 
 
Автор Сообщение

Marsianka

[] 

Информация о фильме
Название: Шопо-коп
Оригинальное название: Paul Blart: Mall Cop
Год выхода: 2009
Жанр: боевик, комедия
Режиссер: Стив Карр
В ролях: Кевин Джеймс, Кейр О`Доннелл, Джейма Мейс, Рэйни Родригез, Ширли Найт, Стефен Раннациси, Питер Герети, Бобби Каннавале, Адам Феррара, Ямал Миксон

О фильме:
Несколько лет подряд Пол стремится попасть в ряды первых защитников Нью Джерси, но экзамен по физподготовке — серьезное препятствие на пути к заветной цели. Тем не менее, Пол остается верен долгу и как никто другой охраняет вверенный ему объект — крупнейший гипермаркет округа.
И, похоже, настал момент истины, когда грабители, переодетые помощниками Санты, захватывают здание и берут в заложники возлюбленную Пола. Он поклялся защищать гипермаркет и все, что в нем находится. И не смотря на кажущуюся мягкотелость, его помощь уже на подходе.
Являясь «глазами полиции» внутри гипермаркета, он пытается остановить грабителей собственными силами. Ведь в его арсенале немало неожиданных трюков. А сноровка и блестящая игра в кошки-мышки порой имеют свое преимущество перед физической формой. Итак, самый блестящий охранник гипермаркета становится настоящим полицейским, чтобы спасти главный шоппинг-день в году, людей и репутацию!



Страна: США
Продолжительность: 01:31:03
Перевод: Дубляж

Файл
Кодек: H.264
Качество: BDRip-AVC от SuperMin
Видео: 1056x568 (1.85:1), 2542 kbps, 23.976 fps
Звук: Русский (AC-3, 6ch, 448 kbps)
Субтитры: Русские, английские
x264 [info]: frame I:1776 Avg QP:17.42 size: 93116
x264 [info]: frame P:30094 Avg QP:18.87 size: 27779
x264 [info]: frame B:99122 Avg QP:22.30 size: 7411
x264 [info]: consecutive B-frames: 3.0% 2.7% 10.0% 22.8% 26.4% 29.8% 3.6% 1.2% 0.6%
x264 [total]: encoded 130992 frames, 7.18 fps, 2541.95 kb/s

General
Unique ID : 254165590988162823191958707195124898803 (0xBF368322ED62D08D900464E6AB03DBF3)
Complete name : F:ФИЛЬМЫТОЛСТЯКШопо-коп.2009.x264.BDRip-AVC.DUB.mkv
Format : Matroska
Format version : Version 4 / Version 2
File size : 1.91 GiB
Duration : 1 h 31 min
Overall bit rate : 3 001 kb/s
Movie name : Шопо-коп / Paul Blart: Mall Cop (2009) - #LORDKILL#
Encoded date : UTC 2017-09-02 11:07:46
Writing application : mkvmerge v9.5.0 ('Quiet Fire') 64bit
Writing library : libebml v1.3.4 + libmatroska v1.4.5

Video
ID : 1
Format : AVC
Format/Info : Advanced Video Codec
Format profile : [email protected]
Format settings, CABAC : Yes
Format settings, ReFrames : 11 frames
Codec ID : V_MPEG4/ISO/AVC
Duration : 1 h 31 min
Bit rate : 2 542 kb/s
Width : 1 056 pixels
Height : 568 pixels
Display aspect ratio : 1.85:1
Frame rate mode : Constant
Frame rate : 23.976 (24000/1001) FPS
Color space : YUV
Chroma subsampling : 4:2:0
Bit depth : 8 bits
Scan type : Progressive
Bits/(Pixel*Frame) : 0.177
Stream size : 1.62 GiB (85%)
Writing library : x264 core 146 r2538 121396c
Encoding settings : cabac=1 / ref=11 / deblock=1:-3:-3 / analyse=0x3:0x113 / me=umh / subme=11 / psy=1 / psy_rd=1.00:0.10 / mixed_ref=1 / me_range=64 / chroma_me=1 / trellis=2 / 8x8dct=1 / cqm=0 / deadzone=21,11 / fast_pskip=0 / chroma_qp_offset=-3 / threads=12 / lookahead_threads=2 / sliced_threads=0 / nr=0 / decimate=1 / interlaced=0 / bluray_compat=0 / constrained_intra=0 / bframes=8 / b_pyramid=2 / b_adapt=2 / b_bias=0 / direct=1 / weightb=1 / open_gop=0 / weightp=2 / keyint=240 / keyint_min=23 / scenecut=40 / intra_refresh=0 / rc=crf / mbtree=0 / crf=19.0 / qcomp=0.60 / qpmin=0 / qpmax=69 / qpstep=4 / ip_ratio=1.40 / pb_ratio=1.30 / aq=1:1.00
Default : Yes
Forced : No

Audio
ID : 2
Format : AC-3
Format/Info : Audio Coding 3
Mode extension : CM (complete main)
Format settings, Endianness : Big
Codec ID : A_AC3
Duration : 1 h 31 min
Bit rate mode : Constant
Bit rate : 448 kb/s
Channel(s) : 6 channels
Channel positions : Front: L C R, Side: L R, LFE
Sampling rate : 48.0 kHz
Frame rate : 31.250 FPS (1536 spf)
Bit depth : 16 bits
Compression mode : Lossy
Stream size : 292 MiB (15%)
Title : Дубляж
Language : Russian
Default : Yes
Forced : No

Text #1
ID : 3
Format : UTF-8
Codec ID : S_TEXT/UTF8
Codec ID/Info : UTF-8 Plain Text
Duration : 1 h 25 min
Bit rate : 60 b/s
Count of elements : 924
Stream size : 37.8 KiB (0%)
Language : Russian
Default : Yes
Forced : No

Text #2
ID : 4
Format : PGS
Muxing mode : zlib
Codec ID : S_HDMV/PGS
Codec ID/Info : Picture based subtitle format used on BDs/HD-DVDs
Duration : 1 h 25 min
Bit rate : 10.7 kb/s
Count of elements : 1916
Stream size : 6.52 MiB (0%)
Language : English
Default : No
Forced : No

Menu
00:00:00.000 : :Глава 01
00:06:29.222 : :Глава 02
00:12:55.608 : :Глава 03
00:19:36.633 : :Глава 04
00:22:19.713 : :Глава 05
00:30:01.007 : :Глава 06
00:35:47.979 : :Глава 07
00:41:09.925 : :Глава 08
00:46:46.720 : :Глава 09
00:53:24.701 : :Глава 10
00:58:57.075 : :Глава 11
01:04:59.729 : :Глава 12
01:09:37.464 : :Глава 13
01:12:42.733 : :Глава 14
01:19:05.532 : :Глава 15
01:22:17.933 : :Глава 16




Скачать Шопо-коп.Paul.Blart.Mall.Cop.(Стив.Карр).[2009.боевик.комедия.BDRip-AVC].[Dub]+[Sub.Rus.Eng]x2.torrent без регистрации
Золото ЗОЛОТАЯ РАЗДАЧА! СКАЧАННОЕ НЕ ЗАСЧИТЫВАЕТСЯ! Золото
Дата: Зарегистрирован   [ Тип: внутренний ] Как тут cкачать?
MAGNET ссылка
MAGNET ссылка


Скачать .torrent

20 KB

Статус: проверено DHT
Скачан: торрент - 9 раз, раздача полностью - 0 раз
Размер: 1,91 GB
Оценка:  - (Голосов: 0)
Поблагодарили: 0
Поделиться ссылкой на эту раздачу с друзьями:
В контактеFacebookОдноклассникиTwitterLivejournalМой МирLiveinternet
 

 
Показать сообщения:    


Вы не можете начинать темы
Вы не можете отвечать на сообщения
Вы не можете редактировать свои сообщения
Вы не можете удалять свои сообщения
Вы не можете голосовать в опросах
Вы не можете прикреплять файлы к сообщениям
Вы можете скачивать файлы