Un romance en las ondas | The Nostalgia Chick | Download
Loading...
Error

Скачать Щедрость Перрье / Perrier's Bounty (Йен Фитцгиббон) [2009, боевик, триллер, драма, комедия, криминал, HDRip-AVC] [DVO (Студия NLS)]+[Sub Rus, Eng]x2 торрент без регистрации

Статистика раздачи
Размер:  740 MB   |    Скачан:  3 раза
Сидов:  1  [  0 KB/s  ]  
 
 
 
Автор Сообщение

Marsianka

[] 

Информация о фильме:
Название: Щедрость Перрье / Награда от Перрье
Оригинальное название: Perrier's Bounty
Год выхода: 2009
Жанр: боевик, триллер, драма, комедия, криминал
Режиссер: Йен Фитцгиббон
В ролях: Киллиан Мёрфи, Брендан Глисон, Джим Броудбент, Домналл Глисон, Гэбриел Бирн, Джоди Уитейкер, Брендан Койл, Падрейк Делейни, Эндрю Симпсон, Нед Деннехи

О фильме :
Действие фильма разворачивается в Дублине вокруг трёх беглецов, спасающихся от гангстера по имени Перрье, который, в свою очередь, отчаянно пытается сохранить авторитет и деньги после случайного убийства преданного напарника.



Выпущено: Великобритания, Ирландия
Продолжительность: 01:27:37
Перевод: Профессиональный двухголосый | Студия NLS

Файл
Формат: MKV
Качество: HDRip-AVC
Видео: MPEG-4 AVC, 768x320, ~ 1116 Кбит/с
Аудио: AAC-LC, 2 ch, ~72 Кбит/с
Субтитры: Русские (по переводу Юрия Сербина), английские
Общее
Уникальный идентификатор : 225564221854796769607545050917089375307 (0xA9B216C3CE39D2FC8D2A5CA74A58F44B)
Полное имя : D:MOVIESPerriers Bounty.2009.ExKinoRay.mkv
Формат : Matroska
Версия формата : Version 4 / Version 2
Размер файла : 740 Мбайт
Продолжительность : 1 ч. 27 м.
Общий поток : 1178 Кбит/сек
Дата кодирования : UTC 2017-09-22 19:02:08
Программа кодирования : mkvmerge v15.0.0 ('Duel with the Devil') 64-bit
Библиотека кодирования : libebml v1.3.5 + libmatroska v1.4.5

Видео
Идентификатор : 1
Формат : AVC
Формат/Информация : Advanced Video Codec
Профиль формата : [email protected]
Параметр CABAC формата : Да
Параметр RefFrames формата : 10 кадров
Идентификатор кодека : V_MPEG4/ISO/AVC
Продолжительность : 1 ч. 27 м.
Битрейт : 1116 Кбит/сек
Ширина : 768 пикселей
Высота : 320 пикселей
Соотношение сторон : 2,40:1
Режим частоты кадров : Постоянный
Частота кадров : 23,976 (24000/1001) кадра/сек
Цветовое пространство : YUV
Субдискретизация насыщенности : 4:2:0
Битовая глубина : 8 бит
Тип развёртки : Прогрессивная
Бит/(Пиксели*Кадры) : 0.189
Размер потока : 693 Мбайт (94%)
Библиотека кодирования : x264 core 130 r2273 b3065e6
Настройки программы : cabac=1 / ref=10 / deblock=1:-2:-2 / analyse=0x3:0x113 / me=umh / subme=11 / psy=1 / psy_rd=1.00:0.15 / mixed_ref=1 / me_range=32 / chroma_me=1 / trellis=2 / 8x8dct=1 / cqm=0 / deadzone=21,11 / fast_pskip=0 / chroma_qp_offset=-3 / threads=6 / lookahead_threads=1 / sliced_threads=0 / nr=0 / decimate=0 / interlaced=0 / bluray_compat=0 / constrained_intra=0 / bframes=10 / b_pyramid=2 / b_adapt=2 / b_bias=0 / direct=3 / weightb=1 / open_gop=0 / weightp=2 / keyint=240 / keyint_min=23 / scenecut=40 / intra_refresh=0 / rc_lookahead=40 / rc=2pass / mbtree=0 / bitrate=1116 / ratetol=1.0 / qcomp=0.60 / qpmin=0 / qpmax=69 / qpstep=4 / cplxblur=20.0 / qblur=0.5 / vbv_maxrate=50000 / vbv_bufsize=62500 / nal_hrd=none / ip_ratio=1.40 / pb_ratio=1.30 / aq=1:1.00
Default : Да
Forced : Нет

Аудио
Идентификатор : 2
Формат : AAC
Формат/Информация : Advanced Audio Codec
Профиль формата : LC
Идентификатор кодека : A_AAC
Продолжительность : 1 ч. 27 м.
Битрейт : 72,0 Кбит/сек
Каналы : 2 канала
Расположение каналов : Front: L R
Частота : 48,0 КГц
Частота кадров : 46,875 кадров/сек (1024 SPF)
Метод сжатия : С потерями
Задержка видео : 9 мс.
Размер потока : 45,2 Мбайт (6%)
Default : Да
Forced : Нет

Текст #1
Идентификатор : 3
Формат : UTF-8
Идентификатор кодека : S_TEXT/UTF8
Идентификатор кодека/Информация : UTF-8 Plain Text
Продолжительность : 1 ч. 24 м.
Битрейт : 100 бит/сек
ElementCount : 1122
Размер потока : 61,9 Кбайт (0%)
Язык : Russian
Default : Нет
Forced : Нет

Текст #2
Идентификатор : 4
Формат : UTF-8
Идентификатор кодека : S_TEXT/UTF8
Идентификатор кодека/Информация : UTF-8 Plain Text
Продолжительность : 1 ч. 23 м.
Битрейт : 63 бит/сек
ElementCount : 1111
Размер потока : 38,8 Кбайт (0%)
Язык : English
Default : Нет
Forced : Нет

Меню
00:00:00.000 : en:1. Нет покоя
00:10:48.606 : en:2. Поиск работы
00:17:07.610 : en:3. Самооборона
00:23:25.404 : en:4. Ликвидация
00:26:57.324 : en:5. Перрье
00:34:57.220 : en:6. Любовь слепа
00:41:55.054 : en:7. Уволенный
00:50:58.264 : en:8. Снукер
01:01:00.866 : en:9. Предъява
01:07:10.443 : en:10. Попытка спасения
01:12:27.093 : en:11. Мрачный Жнец
01:19:37.648 : en:12. Похороны
Релиз от:




Скачать Щедрость.Перрье.Perrier's.Bounty.(Йен.Фитцгиббон).[2009.боевик.триллер.драма.комедия.криминал.HDRip-AVC].[DVO.(Студия.NLS)]+[Sub.Rus.Eng]x2.torrent без регистрации
Золото ЗОЛОТАЯ РАЗДАЧА! СКАЧАННОЕ НЕ ЗАСЧИТЫВАЕТСЯ! Золото
Дата: Зарегистрирован   [ Тип: внутренний ] Как тут cкачать?
MAGNET ссылка
MAGNET ссылка


Скачать .torrent

15 KB

Статус: проверено DHT
Скачан: торрент - 3 раз, раздача полностью - 1 раз
Размер: 740 MB
Оценка:  - (Голосов: 0)
Поблагодарили: 0
Поделиться ссылкой на эту раздачу с друзьями:
В контактеFacebookОдноклассникиTwitterLivejournalМой МирLiveinternet
 

 
Показать сообщения:    


Вы не можете начинать темы
Вы не можете отвечать на сообщения
Вы не можете редактировать свои сообщения
Вы не можете удалять свои сообщения
Вы не можете голосовать в опросах
Вы не можете прикреплять файлы к сообщениям
Вы можете скачивать файлы