Transformers: The Last Knight FRENCH DVDSCR 2017 | Andres Joseph | Скачать MP3
Loading...
Error

Скачать Исчезновение Элис Крид / The Disappearance of Alice Creed (Дж. Блэйксон) [2009, триллер, драма, криминал, BDRip-AVC] [Dub]+[Sub Rus] торрент без регистрации

Статистика раздачи
Размер:  746 MB   |    Скачан:  5 раз
Сидов:  1  [  0 KB/s  ]  
 
 
 
Автор Сообщение

Marsianka

[] 

Информация о фильме
Название: Исчезновение Элис Крид
Оригинальное название: The Disappearance of Alice Creed
Год выхода: 2009
Жанр: триллер, драма, криминал
Режиссер: Дж. Блэйксон
В ролях: Мартин Компстон, Эдди Марсан, Джемма Артертон

О фильме :
Двое мужчин укрепляют непривлекательную английскую квартиру так, чтобы она могла использоваться как тюрьма, и затем похищают женщину и привязывают ее к кровати. До того, как зритель успевает опомниться, он будет погружен в очень неприятную и непростую ситуацию.



Выпущено: Великобритания / CinemaNX, Isle of Man Film Ltd.
Продолжительность: 01:40:08
Перевод: Профессиональный (полное дублирование) | содержит ненормативную лексику

Файл
Формат: MKV
Качество: BDRip-AVC (Blu-Ray Remux 1080p)
Видео: MPEG-4 AVC, 752x312, ~ 968 Кбит/с
Аудио: AAC-LC, 2 ch, ~72 Кбит/с
Субтитры: русские
Общее
Уникальный идентификатор : 241400887600894243814969919367601167495 (0xB59C1EAB6C8848AF80BA4382F67B9C87)
Полное имя : D:MOVIESIscheznovenie.Elis.Krid.2009.ExKinoRay.mkv
Формат : Matroska
Версия формата : Version 4 / Version 2
Размер файла : 746 Мбайт
Продолжительность : 1 ч. 40 м.
Общий поток : 1040 Кбит/сек
Дата кодирования : UTC 2017-09-24 06:54:52
Программа кодирования : mkvmerge v15.0.0 ('Duel with the Devil') 64-bit
Библиотека кодирования : libebml v1.3.5 + libmatroska v1.4.5

Видео
Идентификатор : 1
Формат : AVC
Формат/Информация : Advanced Video Codec
Профиль формата : [email protected]
Параметр CABAC формата : Да
Параметр RefFrames формата : 10 кадров
Идентификатор кодека : V_MPEG4/ISO/AVC
Продолжительность : 1 ч. 40 м.
Битрейт : 968 Кбит/сек
Ширина : 752 пикселя
Высота : 312 пикселей
Соотношение сторон : 2,40:1
Режим частоты кадров : Постоянный
Частота кадров : 23,976 (24000/1001) кадра/сек
Цветовое пространство : YUV
Субдискретизация насыщенности : 4:2:0
Битовая глубина : 8 бит
Тип развёртки : Прогрессивная
Бит/(Пиксели*Кадры) : 0.172
Размер потока : 692 Мбайт (93%)
Библиотека кодирования : x264 core 152 r2851kMod ba24899
Настройки программы : cabac=1 / ref=10 / deblock=1:-1:-1 / analyse=0x3:0x113 / me=umh / subme=11 / psy=1 / fade_compensate=0.00 / psy_rd=1.00:0.05 / mixed_ref=1 / me_range=32 / chroma_me=1 / trellis=2 / 8x8dct=1 / cqm=0 / deadzone=21,11 / fast_pskip=0 / chroma_qp_offset=-3 / threads=6 / lookahead_threads=1 / sliced_threads=0 / nr=0 / decimate=0 / interlaced=0 / bluray_compat=0 / constrained_intra=0 / bframes=10 / b_pyramid=2 / b_adapt=2 / b_bias=0 / direct=3 / weightb=1 / open_gop=0 / weightp=2 / keyint=240 / keyint_min=23 / scenecut=40 / intra_refresh=0 / rc_lookahead=40 / rc=2pass / mbtree=1 / bitrate=968 / ratetol=1.0 / qcomp=0.60 / qpmin=0 / qpmax=69 / qpstep=4 / cplxblur=20.0 / qblur=0.5 / vbv_maxrate=50000 / vbv_bufsize=62500 / nal_hrd=none / filler=0 / ip_ratio=1.40 / aq=3:1.00
Default : Да
Forced : Нет

Аудио
Идентификатор : 2
Формат : AAC
Формат/Информация : Advanced Audio Codec
Профиль формата : LC
Идентификатор кодека : A_AAC
Продолжительность : 1 ч. 40 м.
Битрейт : 72,0 Кбит/сек
Каналы : 2 канала
Расположение каналов : Front: L R
Частота : 48,0 КГц
Частота кадров : 46,875 кадров/сек (1024 SPF)
Метод сжатия : С потерями
Задержка видео : 9 мс.
Размер потока : 51,6 Мбайт (7%)
Default : Да
Forced : Нет

Текст
Идентификатор : 3
Формат : UTF-8
Идентификатор кодека : S_TEXT/UTF8
Идентификатор кодека/Информация : UTF-8 Plain Text
Продолжительность : 1 ч. 37 м.
Битрейт : 49 бит/сек
ElementCount : 739
Размер потока : 35,5 Кбайт (0%)
Default : Нет
Forced : Нет
Релиз от:




Скачать Исчезновение.Элис.Крид.The.Disappearance.of.Alice.Creed.(Дж.Блэйксон).[2009.триллер.драма.криминал.BDRip-AVC].[Dub]+[Sub.Rus].torrent без регистрации
Золото ЗОЛОТАЯ РАЗДАЧА! СКАЧАННОЕ НЕ ЗАСЧИТЫВАЕТСЯ! Золото
Дата: Зарегистрирован   [ Тип: внутренний ] Как тут cкачать?
MAGNET ссылка
MAGNET ссылка


Скачать .torrent

16 KB

Статус: проверено DHT
Скачан: торрент - 5 раз, раздача полностью - 0 раз
Размер: 746 MB
Оценка:  - (Голосов: 0)
Поблагодарили: 0
Поделиться ссылкой на эту раздачу с друзьями:
В контактеFacebookОдноклассникиTwitterLivejournalМой МирLiveinternet
 

 
Показать сообщения:    


Вы не можете начинать темы
Вы не можете отвечать на сообщения
Вы не можете редактировать свои сообщения
Вы не можете удалять свои сообщения
Вы не можете голосовать в опросах
Вы не можете прикреплять файлы к сообщениям
Вы можете скачивать файлы