Thomas Kidd | The Mist | Vino Para Robar BLuRayRip
Loading...
Error

Скачать Слуга народа. От любви до импичмента (02х01-22 из 24) (Алексей Кирющенко) [2017, комедия, WEBRip] [2160p] торрент без регистрации

Статистика раздачи
Размер:  53,06 GB   |    Скачан:  10 раз
Сидов:  1  [  0 KB/s  ]  
 
 
 
Автор Сообщение

МихаНЕзатор

[] 

Информация о фильме
Оригинальное название: Слуга народа 2
Год выпуска: 2017
Жанр: Комедия
Режиссер: Алексей Кирющенко

В ролях: Владимир Зеленский, Станислав Боклан, Наталия Сумская, Виктор Сарайкин, Екатерина Кистень, Анна Кошмал, Ринат Хабибулин, Евгений Кошевой, Александр Пикалов, Юрий Крапов, Елена Кравец, Сергей Казанин

О фильме: Что будет, если президентом станет обычный человек из народа? Новый, честный, принципиальный и, самое главное, – умный человек. Именно эти мысли однажды сподвигли народ избрать президентом простого учителя истории Василия Голобородько... Неожиданно для всех страна получила гаранта, который живет в обычной квартире. Который спокойно идет по улице без армии охранников и запросто ездит на маршрутке, который получает скромную зарплату и иногда занимает у друга "до зарплаты". В общем, который живет – как все. Ведь он точно знает - когда "царь" начнет жить как простой учитель, вскоре простой учитель заживет как царь! И пускай у него нет серебряных пуль и осинового кола, каждое утро Василий Петрович выходит на борьбу с "нечистой силой" и без устали "воюет" с армадой коррумпированных и насквозь прогнивших чинуш, разгребает "авгиевы конюшни" государства. Правда, он не учел одного. Система, где все привыкли безбожно воровать, откатывать и дерибанить – будет против такой заботы о народе.



Страна: Украина
Студия: «Квартал-95»
Продолжительность: 18 x ~ 00:25:00
Перевод: Не требуется

Файл
Качество: WEBRip 2160p
Кодек: H264 - MPEG-4 AVC (avc1)
Видео: MPEG-4 AVC, ~ 12.5 Mbp/с, 3840x2160, 25 кадр/с
Аудио: AAC, 2 ch, 126 Кбит/с
Язык: Русский

АНОНСЫ ПОПУЛЯРНЫХ РАЗДАЧ


Торрент обновлён, добавлена 22-я серия!
General
Complete name : H:Слуга Народа 2 - От любви до импичмента, сериал 2017 в 4кСлуга Народа 2 - От любви до импичмента, 1 и 2 серии ¦ Премьера сериала 2017 в 4к.mp4
Format : MPEG-4
Format profile : Base Media
Codec ID : isom
File size : 4.64 GiB
Duration : 52mn 29s
Overall bit rate : 12.7 Mbps
Writing application : Lavf57.2.100

Video
ID : 1
Format : AVC
Format/Info : Advanced Video Codec
Format profile : [email protected]
Format settings, CABAC : No
Format settings, ReFrames : 2 frames
Codec ID : avc1
Codec ID/Info : Advanced Video Coding
Duration : 52mn 29s
Bit rate : 12.5 Mbps
Width : 3 840 pixels
Height : 2 160 pixels
Display aspect ratio : 16:9
Frame rate mode : Constant
Frame rate : 25.000 fps
Color space : YUV
Chroma subsampling : 4:2:0
Bit depth : 8 bits
Scan type : Progressive
Bits/(Pixel*Frame) : 0.060
Stream size : 4.59 GiB (99%)
Color primaries : BT.709
Transfer characteristics : BT.709
Matrix coefficients : BT.709

Audio
ID : 2
Format : AAC
Format/Info : Advanced Audio Codec
Format profile : LC
Codec ID : 40
Duration : 52mn 29s
Bit rate mode : Constant
Bit rate : 126 Kbps
Channel(s) : 2 channels
Channel positions : Front: L R
Sampling rate : 44.1 KHz
Compression mode : Lossy
Stream size : 47.1 MiB (1%)




Скачать Слуга.народа.От.любви.до.импичмента.(02х01-22.из.24).(Алексей.Кирющенко).[2017.комедия.WEBRip].[2160p].torrent без регистрации
Золото ЗОЛОТАЯ РАЗДАЧА! СКАЧАННОЕ НЕ ЗАСЧИТЫВАЕТСЯ! Золото
Дата: Зарегистрирован   [ Тип: внутренний ] Как тут cкачать?
MAGNET ссылка
MAGNET ссылка


Скачать .torrent

137 KB

Статус: проверено DHT
Скачан: торрент - 10 раз, раздача полностью - 1 раз
Размер: 53,06 GB
Оценка:  - (Голосов: 0)
Поблагодарили: 1
Поделиться ссылкой на эту раздачу с друзьями:
В контактеFacebookОдноклассникиTwitterLivejournalМой МирLiveinternet
 

 
Показать сообщения:    


Вы не можете начинать темы
Вы не можете отвечать на сообщения
Вы не можете редактировать свои сообщения
Вы не можете удалять свои сообщения
Вы не можете голосовать в опросах
Вы не можете прикреплять файлы к сообщениям
Вы можете скачивать файлы